<?xml version="1.0" standalone="no"?>
<!DOCTYPE svg PUBLIC "-//W3C//DTD SVG 1.1//EN" "http://www.w3.org/Graphics/SVG/1.1/DTD/svg11.dtd" >
<svg xmlns="http://www.w3.org/2000/svg" xmlns:xlink="http://www.w3.org/1999/xlink" version="1.1">
<metadata></metadata>
<defs>
<font id="titilliumlight_upright" horiz-adv-x="1146" >
<font-face units-per-em="2048" ascent="1536" descent="-512" />
<missing-glyph horiz-adv-x="450" />
<glyph horiz-adv-x="0" />
<glyph horiz-adv-x="682" />
<glyph unicode=" "  horiz-adv-x="450" />
<glyph unicode="&#x09;" horiz-adv-x="450" />
<glyph unicode="&#xa0;" horiz-adv-x="450" />
<glyph unicode="!" horiz-adv-x="454" d="M166 0v205h125v-205h-125zM166 1434h125l-8 -977h-113z" />
<glyph unicode="&#x22;" horiz-adv-x="686" d="M135 1423h117l-4 -452h-109zM434 1423h117l-4 -452h-109z" />
<glyph unicode="#" d="M53 377v106h234v402h-234v106h234v375h114v-375h342v375h115v-375h234v-106h-234v-402h234v-106h-234v-377h-115v377h-342v-377h-114v377h-234zM401 483h342v402h-342v-402z" />
<glyph unicode="$" d="M176 1004q0 185 104 275.5t300 90.5q31 0 49 -2l35 238h94l-37 -244q51 -5 105.5 -13t83.5 -13l28 -5l-8 -96q-112 14 -223 22l-74 -512q89 -22 146.5 -46.5t103.5 -64.5t67 -98.5t21 -142.5q0 -416 -396 -416q-26 0 -53 3l-33 -224h-94l33 230l-240 28l11 101 q124 -17 243 -25l82 561q-89 20 -149.5 46t-107.5 66.5t-69 100t-22 140.5zM301 1012q0 -59 14 -99.5t46.5 -68.5t73 -44.5t106.5 -33.5l71 498h-28q-143 0 -213 -60t-70 -192zM537 86h38q273 0 273 295q0 112 -55.5 166t-176.5 84z" />
<glyph unicode="%" d="M66 1159q0 -145 58 -217t161 -72q102 0 160.5 72t58.5 215t-57.5 212t-161.5 69q-105 0 -162 -68.5t-57 -210.5zM168 1159q0 96 27.5 142.5t89.5 46.5q63 0 88.5 -46t25.5 -145q0 -101 -26 -148.5t-88 -47.5t-89.5 49.5t-27.5 148.5zM348 12l348 1434l95 -25l-347 -1431z M641 289q0 278 219 278q104 0 161.5 -68.5t57.5 -211.5t-58.5 -215t-160.5 -72q-103 0 -161 72t-58 217zM745 289q0 -101 27 -150t88 -49q63 0 90 48.5t27 148.5q0 98 -27 144t-90 46q-62 0 -88.5 -46t-26.5 -142z" />
<glyph unicode="&#x26;" horiz-adv-x="1300" d="M74 420q0 291 307 403q-63 79 -84 147.5t-21 164.5q0 150 81.5 229.5t232.5 79.5q325 0 325 -307q0 -47 -5.5 -85t-24.5 -83.5t-51 -82.5t-88.5 -76t-133.5 -71l318 -327q46 119 53 280h117q-3 -83 -26.5 -189t-57.5 -177q238 -238 250 -254q-80 -88 -82 -88l-234 239 q-73 -127 -176.5 -185t-251.5 -58q-222 0 -335 112t-113 328zM203 418q0 -148 80 -238t241 -90q232 0 344 211l-413 438q-61 -22 -107 -50t-73 -58t-43.5 -67t-22.5 -71t-6 -75zM406 1130q0 -110 27 -168t110 -145q135 54 189 124t54 192q0 102 -47.5 153t-148.5 51 q-88 0 -136 -57.5t-48 -149.5z" />
<glyph unicode="'" horiz-adv-x="387" d="M135 1423h117l-4 -452h-109z" />
<glyph unicode="(" horiz-adv-x="489" d="M102 616q0 118 20 255.5t48.5 250t57.5 208t49 148.5l20 54h117q-8 -22 -20.5 -60t-44.5 -151t-57 -219.5t-45 -242.5t-20 -243t19.5 -235.5t46.5 -236.5t54.5 -200.5t46.5 -145.5l20 -52h-117q-8 18 -21 51t-46.5 133.5t-59.5 199t-47 233.5t-21 253z" />
<glyph unicode=")" horiz-adv-x="487" d="M74 -242q8 22 20.5 60t44.5 151t56.5 219.5t44.5 242.5t20 243t-19 235.5t-46.5 236.5t-55 200.5t-46.5 145.5l-19 52h116q8 -18 21 -51t46.5 -133.5t59.5 -199t47 -233.5t21 -253t-20 -255.5t-48.5 -250t-57.5 -208t-49 -148.5l-20 -54h-116z" />
<glyph unicode="*" horiz-adv-x="829" d="M104 938l224 162l-219 162l53 73l221 -161l84 260l88 -29l-84 -262h270v-90h-274l84 -260l-86 -27l-86 262l-221 -162z" />
<glyph unicode="+" d="M117 457v114h395v412h117v-412h401v-114h-401v-416h-117v416h-395z" />
<glyph unicode="," horiz-adv-x="409" d="M76 -266l78 471h131l-111 -471h-98z" />
<glyph unicode="-" horiz-adv-x="776" d="M135 492v114h508v-114h-508z" />
<glyph unicode="." horiz-adv-x="393" d="M135 0v205h125v-205h-125z" />
<glyph unicode="/" horiz-adv-x="776" d="M63 29l539 1413l113 -41l-539 -1415z" />
<glyph unicode="0" d="M100 651q0 169 22 295t61 206.5t99.5 130.5t129.5 69.5t159 19.5q93 0 163 -19.5t130.5 -68.5t98.5 -130t59.5 -206.5t21.5 -294.5q0 -121 -12.5 -217t-45.5 -183.5t-85 -146t-135 -92.5t-193 -34q-108 0 -190.5 33.5t-135.5 91.5t-86.5 144t-47 183.5t-13.5 218.5z M227 649q0 -75 5 -136.5t17.5 -128.5t37.5 -117t62 -91.5t94 -63.5t130 -22q85 0 148 30t100 78.5t59.5 124t30 152t7.5 176.5q0 177 -21.5 296.5t-67 188.5t-107.5 97.5t-151 28.5q-70 0 -122 -17.5t-95 -59.5t-70.5 -111.5t-42 -175.5t-14.5 -249z" />
<glyph unicode="1" d="M242 1071l426 283h112v-1354h-127v1206l-352 -235z" />
<glyph unicode="2" d="M141 0v102l432 451q77 80 117 126t80 104t56 110.5t16 112.5q0 136 -78 196t-227 60q-62 0 -155.5 -12t-156.5 -24l-63 -12l-10 103q225 55 399 55q418 0 418 -356q0 -75 -17.5 -139t-57.5 -126t-83.5 -112t-116.5 -123l-401 -405h715v-111h-867z" />
<glyph unicode="3" d="M135 31l15 100q206 -41 413 -41q152 0 231.5 72.5t79.5 212.5q0 76 -22.5 130t-64.5 84t-92 44.5t-115 17.5h-267v105l265 4q57 1 115 29t102.5 88.5t44.5 138.5q0 132 -68.5 189t-224.5 57q-80 0 -175 -10t-150 -20l-56 -9l-12 98q219 51 397 51q217 0 316.5 -83.5 t99.5 -262.5q0 -112 -51.5 -186.5t-157.5 -118.5q60 -20 99.5 -41.5t74.5 -59.5t52 -97t17 -142q0 -200 -108.5 -300.5t-319.5 -100.5q-89 0 -198.5 12.5t-174.5 25.5z" />
<glyph unicode="4" d="M98 260v96l418 998h135l-424 -985h525v460h125v-460h172v-109h-172v-262h-125v262h-654z" />
<glyph unicode="5" d="M141 39l17 102q223 -47 409 -47q144 0 235 92.5t91 257.5q0 289 -307 289q-72 0 -156 -23.5t-132 -47.5l-48 -23l-92 18l41 697h764v-113h-660l-37 -485q20 10 54 25t122.5 40t157.5 25q420 0 420 -397q0 -229 -121.5 -347t-327.5 -118q-83 0 -190.5 14t-173.5 28z" />
<glyph unicode="6" d="M117 631q0 165 25.5 293t70 211.5t110 137.5t141 76.5t167.5 22.5q68 0 156.5 -10t142.5 -20l55 -9l-12 -104q-184 33 -342 33q-179 0 -276.5 -123t-110.5 -391q24 10 63 25t134.5 40t160.5 25q212 0 328.5 -101t116.5 -305q0 -223 -115.5 -337.5t-331.5 -114.5 q-239 0 -361 169t-122 482zM244 610q0 -242 91 -381t265 -139q155 0 236.5 86t81.5 256q0 295 -324 295q-70 0 -157 -21.5t-139 -43.5l-52 -21q-2 -8 -2 -31z" />
<glyph unicode="7" d="M172 1241v113h809v-199l-520 -1178l-117 39l512 1153v72h-684z" />
<glyph unicode="8" d="M72 348q0 77 18.5 135.5t56 100.5t78 69t101.5 56q-119 53 -175.5 124t-56.5 195q0 171 126 258.5t349 87.5q225 0 354.5 -87.5t129.5 -260.5q0 -127 -59 -197t-191 -120q63 -22 109 -49t84 -66.5t57.5 -95t19.5 -127.5q0 -391 -504 -391q-106 0 -192 19t-156.5 60 t-109.5 114.5t-39 174.5zM199 362q0 -143 100.5 -207.5t269.5 -64.5q85 0 150.5 14.5t117.5 46.5t79.5 88.5t27.5 135.5q0 53 -15 94.5t-38 68.5t-61.5 49t-74.5 34.5t-87 25.5h-213q-125 -33 -190.5 -99t-65.5 -186zM221 1016q0 -102 58 -162.5t176 -97.5h213 q125 36 190.5 97t65.5 161q0 248 -355 248q-170 0 -259 -58.5t-89 -187.5z" />
<glyph unicode="9" d="M98 932q0 204 128 322t327 118q235 0 354 -179.5t119 -524.5q0 -191 -36.5 -326.5t-106.5 -213.5t-161.5 -113t-211.5 -35q-68 0 -157.5 10.5t-144.5 21.5l-56 11l14 110q184 -37 344 -37q382 0 385 498q-25 -9 -66 -22t-139 -34.5t-162 -21.5q-202 0 -316 105t-114 311z M229 932q0 -151 80 -226t228 -75q62 0 152 18.5t149 36.5l59 19q-2 262 -87 407t-257 145q-145 0 -234.5 -87t-89.5 -238z" />
<glyph unicode=":" horiz-adv-x="393" d="M135 0v205h125v-205h-125zM135 686v205h125v-205h-125z" />
<glyph unicode=";" horiz-adv-x="456" d="M98 -266h99l110 471h-131zM180 686v205h125v-205h-125z" />
<glyph unicode="&#x3c;" d="M123 459v110l858 426v-129l-733 -350l733 -356v-131z" />
<glyph unicode="=" d="M133 272v115h879v-115h-879zM133 639v115h879v-115h-879z" />
<glyph unicode="&#x3e;" d="M166 29v131l733 356l-733 350v129l858 -426v-110z" />
<glyph unicode="?" horiz-adv-x="831" d="M63 1391q191 53 314 53q198 0 288.5 -76t90.5 -262q0 -90 -43.5 -165.5t-171.5 -221.5q-67 -77 -98 -131.5t-31 -110.5v-82h-119q-8 58 -8 97q0 79 34.5 138t133.5 173q106 128 139 183t33 120q0 131 -57.5 177t-198.5 46q-52 0 -124 -10.5t-119 -21.5l-46 -11zM283 2 v213h129v-213h-129z" />
<glyph unicode="@" horiz-adv-x="1890" d="M100 535q0 254 53 431.5t163 288.5t271 161t386 50q190 0 330.5 -36.5t237 -107t155 -184.5t84.5 -259t26 -340q0 -90 -9.5 -166.5t-34.5 -149.5t-64 -124t-102.5 -82t-145.5 -31q-115 0 -173 46.5t-77 157.5q-9 -17 -35 -46.5t-68 -67t-102.5 -64t-122.5 -26.5 q-88 0 -151 34.5t-100 101t-54.5 157t-17.5 210.5q0 105 10.5 185t38 151t72.5 116t117 71t169 26q48 0 135.5 -8.5t150.5 -17.5l63 -8v-748q0 -84 34.5 -124t110.5 -40q40 0 72.5 11t64 41.5t53.5 79t35 129t13 186.5q0 178 -20 305t-68 229t-130 163t-204 92.5t-293 31.5 q-265 0 -428 -80t-244.5 -262t-81.5 -483q0 -220 37 -372.5t123 -260.5t230.5 -158.5t355.5 -50.5q35 0 104 5t121 10l51 5l6 -106q-190 -21 -282 -21q-239 0 -405 57t-268 178t-147 294.5t-45 419.5zM676 500q0 -98 9.5 -167.5t33 -126t67 -84.5t107.5 -28q47 0 94 24 t80.5 58t60.5 68t40 58l14 24v583l-18 2q-19 2 -46.5 5.5t-57.5 6.5t-58.5 5t-43.5 2q-53 0 -95.5 -12t-71.5 -32.5t-50.5 -53t-33.5 -66.5t-19.5 -81t-9.5 -88.5t-2 -96.5z" />
<glyph unicode="A" horiz-adv-x="1132" d="M49 0l387 1423h262l385 -1423h-127l-108 391h-561l-111 -391h-127zM311 502h508l-219 807h-68z" />
<glyph unicode="B" horiz-adv-x="1171" d="M164 0v1423h467q193 0 293 -84.5t100 -267.5q0 -258 -186 -334q124 -42 177.5 -122t53.5 -212q0 -211 -105 -307t-321 -96h-479zM289 111h352q154 0 225.5 71.5t71.5 225.5q0 136 -75 200t-228 64h-346v-561zM289 780h344q132 0 197 77t65 204q0 130 -66 191t-198 61 h-342v-533z" />
<glyph unicode="C" horiz-adv-x="1028" d="M115 709q0 141 13 248.5t45.5 202t86 155t137.5 95t197 34.5q77 0 165.5 -11t138.5 -21l50 -11l-8 -109q-191 37 -336 37q-89 0 -153.5 -29.5t-103.5 -80t-62 -132t-31 -169.5t-8 -209q0 -118 8 -205t31 -168t62.5 -131.5t104 -80.5t154.5 -30q57 0 140.5 9t138.5 17 l55 9l8 -106q-196 -43 -354 -43q-116 0 -200.5 33.5t-138 92.5t-85 153t-43.5 200.5t-12 249.5z" />
<glyph unicode="D" horiz-adv-x="1230" d="M164 0v1423h473q262 0 369.5 -161.5t107.5 -526.5q0 -151 -14 -264t-47.5 -204.5t-88 -148.5t-136 -87.5t-191.5 -30.5h-473zM289 113h348q82 0 142 28t99 78t62.5 129t33 171.5t9.5 215.5q0 122 -9.5 210t-33 159.5t-62.5 115t-99 66.5t-142 23h-348v-1196z" />
<glyph unicode="E" horiz-adv-x="1040" d="M164 0v1423h784v-112h-659v-529h545v-112h-545v-557h659v-113h-784z" />
<glyph unicode="F" horiz-adv-x="999" d="M164 0v1423h786v-112h-661v-594h547v-111h-547v-606h-125z" />
<glyph unicode="G" horiz-adv-x="1177" d="M113 711q0 139 13 244.5t47 201t91 156t147.5 96t213.5 35.5q95 0 200.5 -13t163.5 -27l58 -13l-9 -103q-233 43 -405 43q-73 0 -131 -16.5t-98.5 -44t-69.5 -72.5t-46.5 -93.5t-27.5 -116.5t-13 -131t-3 -146q0 -104 10 -190t37 -168t69.5 -138t111.5 -89.5t159 -33.5 q51 0 124 8t120 16l47 9v496h-238v108h363v-702q-272 -47 -426 -47q-508 0 -508 731z" />
<glyph unicode="H" horiz-adv-x="1271" d="M164 0v1423h125v-651h694v651h125v-1423h-125v659h-694v-659h-125z" />
<glyph unicode="I" horiz-adv-x="452" d="M164 0v1423h125v-1423h-125z" />
<glyph unicode="J" horiz-adv-x="540" d="M35 -33q54 1 90.5 6t62 20.5t39 32.5t21 53.5t9 70t1.5 94.5v1179h125l2 -1196q0 -77 -4.5 -127.5t-18 -95.5t-37 -70.5t-63.5 -45t-94.5 -26.5t-132.5 -7v112z" />
<glyph unicode="K" horiz-adv-x="1060" d="M164 0v1423h125v-669l203 4l374 665h142l-410 -708l432 -715h-141l-395 647l-205 -4v-643h-125z" />
<glyph unicode="L" horiz-adv-x="903" d="M164 0v1423h125v-1310h588v-113h-713z" />
<glyph unicode="M" horiz-adv-x="1583" d="M164 0v1423h227l402 -1257l399 1257h227v-1423h-121v1311h-26l-402 -1264h-157l-402 1264h-26v-1311h-121z" />
<glyph unicode="N" horiz-adv-x="1275" d="M164 0v1423h233l555 -1298h39v1298h123v-1423h-231l-555 1298h-39v-1298h-125z" />
<glyph unicode="O" horiz-adv-x="1263" d="M117 723q0 267 42.5 420.5t155.5 226.5q115 74 318 74q127 0 217 -28.5t148 -82t91 -144.5t45.5 -200t12.5 -266q0 -280 -46.5 -442t-170.5 -236q-112 -65 -297 -65q-91 0 -162.5 15.5t-126 44.5t-93.5 76.5t-65 105.5t-41.5 137.5t-21.5 166t-6 197.5zM248 723 q0 -99 3.5 -169.5t13 -140.5t27.5 -117t46 -88t69 -64.5t97 -36.5t129 -13q128 0 201 37q111 53 146.5 189t35.5 403q0 99 -3.5 168.5t-13 137.5t-27 112t-46 83t-69 60t-96 33t-128.5 12q-128 0 -197 -31q-60 -25 -98 -70.5t-57.5 -122t-26 -162.5t-6.5 -220z" />
<glyph unicode="P" horiz-adv-x="1124" d="M164 0v1423h444q225 0 335 -106.5t110 -341.5q0 -486 -443 -486h-321v-489h-125zM289 602h315q161 0 239.5 88.5t78.5 286.5q0 181 -78 256.5t-240 75.5h-315v-707z" />
<glyph unicode="Q" horiz-adv-x="1263" d="M117 723q0 267 42.5 420.5t155.5 226.5q115 74 318 74q127 0 217 -28.5t148 -82t91 -144.5t45.5 -200t12.5 -266q0 -280 -46.5 -442t-170.5 -236h-2l159 -270l-108 -62l-162 287q-88 -20 -184 -20q-91 0 -162.5 15.5t-126 44.5t-93.5 76.5t-65 105.5t-41.5 137.5 t-21.5 166t-6 197.5zM248 723q0 -99 3.5 -169.5t13 -140.5t27.5 -117t46 -88t69 -64.5t97 -36.5t129 -13q128 0 201 37q111 53 146.5 189t35.5 403q0 99 -3.5 168.5t-13 137.5t-27 112t-46 83t-69 60t-96 33t-128.5 12q-128 0 -197 -31q-60 -25 -98 -70.5t-57.5 -122 t-26 -162.5t-6.5 -220z" />
<glyph unicode="R" horiz-adv-x="1159" d="M164 0v1423h465q418 0 418 -424q0 -96 -19 -169.5t-54.5 -121t-78 -76.5t-98.5 -48l284 -584h-137l-272 561h-383v-561h-125zM289 672h340q148 0 217 81t69 246q0 157 -69.5 235.5t-216.5 78.5h-340v-641z" />
<glyph unicode="S" horiz-adv-x="1021" d="M94 1057q0 196 109.5 291.5t316.5 95.5q69 0 163.5 -10t154.5 -20l59 -11l-8 -103q-224 31 -365 31q-151 0 -225 -63t-74 -201q0 -56 14 -97t36.5 -67.5t67 -47.5t88.5 -33.5t118 -28.5q101 -23 165.5 -48.5t116.5 -68t75.5 -106t23.5 -154.5q0 -436 -416 -436 q-68 0 -169.5 9t-168.5 18l-67 9l10 107q256 -31 395 -31q287 0 287 311q0 67 -18 114t-58.5 77.5t-92 49t-130.5 34.5q-83 18 -142.5 37t-112.5 49t-85 69t-50 95t-18 129z" />
<glyph unicode="T" horiz-adv-x="972" d="M27 1311v112h919v-112h-393v-1311h-125v1311h-401z" />
<glyph unicode="U" horiz-adv-x="1220" d="M156 420v1003h125v-1009q0 -170 80 -246t249 -76q170 0 250 75.5t80 246.5v1009h127v-1003q0 -223 -113.5 -331.5t-343.5 -108.5q-229 0 -341.5 108t-112.5 332z" />
<glyph unicode="V" horiz-adv-x="1105" d="M51 1423h125l330 -1310h96l326 1310h125l-355 -1423h-290z" />
<glyph unicode="W" horiz-adv-x="1683" d="M68 1423h120l256 -1308h60l268 1288h135l275 -1288h61l250 1308h121l-277 -1423h-243l-254 1239l-248 -1239h-242z" />
<glyph unicode="X" horiz-adv-x="1058" d="M39 0l416 707l-414 716h141l348 -618l347 618h139l-406 -714l408 -709h-139l-349 614l-354 -614h-137z" />
<glyph unicode="Y" horiz-adv-x="1017" d="M25 1423h139l346 -684l340 684h137l-418 -823v-600h-120v600z" />
<glyph unicode="Z" horiz-adv-x="1017" d="M84 -2v178l713 1084v51h-713v112h850v-180l-715 -1083v-49h715v-113h-850z" />
<glyph unicode="[" horiz-adv-x="620" d="M154 -250v1780h385v-109h-269v-1562h269v-109h-385z" />
<glyph unicode="\" horiz-adv-x="897" d="M59 1415l125 21l652 -1477l-125 -20z" />
<glyph unicode="]" horiz-adv-x="620" d="M82 -141h268v1562h-268v109h385v-1780h-385v109z" />
<glyph unicode="^" d="M125 655l377 697h112l392 -697h-134l-313 574l-301 -574h-133z" />
<glyph unicode="_" horiz-adv-x="1294" d="M188 -162h918v-123h-918v123z" />
<glyph unicode="`" horiz-adv-x="1060" d="M264 1415l41 101l402 -193l-35 -90z" />
<glyph unicode="a" horiz-adv-x="1001" d="M102 489q0 105 10.5 185.5t38 152.5t73 118t117.5 72.5t169 26.5q48 0 135 -8.5t150 -17.5l63 -8v-768q0 -47 3 -107.5t6 -97.5l3 -37l-122 -4q-11 100 -11 188q-5 -8 -14 -22t-39.5 -49t-64.5 -62t-87 -49t-108 -22q-174 0 -248 125.5t-74 383.5zM229 489 q0 -95 9.5 -164t33 -125t67 -84t107.5 -28q47 0 94.5 24t81 58t61 67.5t41.5 57.5l13 24v596q-152 21 -209 21q-73 0 -125.5 -19.5t-86 -54t-53 -92t-27 -123.5t-7.5 -158z" />
<glyph unicode="b" horiz-adv-x="1001" d="M141 2v1477h123v-592q6 6 16 17t43 38t67 47.5t83.5 37.5t95.5 17q95 0 160 -35t102 -104.5t52.5 -159.5t15.5 -213q0 -287 -96 -419.5t-322 -132.5q-57 0 -142 5.5t-141 10.5zM264 102q170 -14 223 -14q162 0 223.5 105.5t61.5 338.5q0 96 -10.5 167t-35 126t-68 83 t-105.5 28q-43 0 -88.5 -17t-80 -41t-62.5 -48t-43 -41l-15 -17v-670z" />
<glyph unicode="c" horiz-adv-x="815" d="M102 528q0 271 94 392.5t304 121.5q42 0 101 -6t97 -12l39 -6l-6 -103q-137 19 -211 19q-163 0 -227 -96t-64 -310q0 -89 5.5 -150.5t23 -120t49 -93t85 -55.5t128.5 -21q33 0 85.5 4t88.5 8l37 4l6 -98q-145 -26 -237 -26q-98 0 -168.5 24t-115 67t-70 113.5t-35 151 t-9.5 192.5z" />
<glyph unicode="d" horiz-adv-x="1001" d="M102 498q0 274 93 409t307 135q48 0 107 -6t93 -12l35 -6v461h121v-1479h-121v164q-5 -7 -14 -19.5t-40 -44.5t-65 -56t-87.5 -44t-108.5 -20q-175 0 -247.5 132t-72.5 386zM229 498q0 -72 5 -128t20 -111t39 -91t64.5 -58t95.5 -22q46 0 92 22t79 53t59.5 62.5 t40.5 53.5l13 22v612q-123 23 -227 23q-157 0 -219 -108t-62 -330z" />
<glyph unicode="e" horiz-adv-x="921" d="M100 502q0 540 412 540q152 0 239 -65.5t87 -198.5q0 -178 -114.5 -244.5t-383.5 -66.5h-115v-29q0 -350 254 -350q64 0 142.5 10t124.5 20l47 11l8 -92q-16 -6 -45 -15t-115 -24.5t-168 -15.5q-197 0 -285 122.5t-88 397.5zM225 567h115q209 0 292 43t83 166 q0 87 -53 124.5t-152 37.5q-147 0 -214.5 -93.5t-70.5 -277.5z" />
<glyph unicode="f" horiz-adv-x="626" d="M59 915v109h123v100q0 203 59.5 289t194.5 86q30 0 73 -5t71 -10l28 -5v-103q-98 17 -155 17q-84 0 -116 -62.5t-32 -208.5v-98h285v-109h-285v-915l-10 -461h-113v1376h-123z" />
<glyph unicode="g" horiz-adv-x="956" d="M88 -207q0 87 58 169.5t137 131.5q-28 24 -39 51t-11 68q0 29 15.5 70t31.5 67l15 27q-191 66 -191 317q0 165 88.5 257.5t251.5 92.5q40 0 84 -6.5t68 -13.5l25 -6l292 4v-104h-196q37 -31 59.5 -93t22.5 -131q0 -164 -93 -253t-266 -89l-51 4q-39 -82 -39 -131 q0 -29 11 -45t55 -27.5t127 -11.5q90 0 151 -10.5t111.5 -39t75 -83.5t24.5 -139q0 -159 -117.5 -256.5t-308.5 -97.5q-73 0 -128.5 6.5t-106.5 25t-84 49t-52.5 80t-19.5 117.5zM207 -193q0 -106 67.5 -145t208.5 -39q140 0 221.5 64.5t81.5 181.5q0 43 -12 73.5t-31.5 48 t-53 27t-67.5 12.5t-85 3q-110 0 -166 16q-63 -30 -113.5 -99t-50.5 -143zM223 694q0 -111 53 -172t164 -61q240 0 240 233q0 120 -56 182t-180 62q-111 0 -166 -64t-55 -180z" />
<glyph unicode="h" horiz-adv-x="1015" d="M141 0v1479h123v-623q5 8 15 20.5t42.5 45t66.5 57t85 45t100 20.5q310 0 310 -405v-639h-123v600q0 175 -47.5 255.5t-159.5 80.5q-42 0 -87 -21t-79.5 -51t-63.5 -60.5t-44 -51.5l-15 -21v-731h-123z" />
<glyph unicode="i" horiz-adv-x="405" d="M139 1266v159h127v-159h-127zM141 0v1024h123v-1024h-123z" />
<glyph unicode="j" horiz-adv-x="405" d="M-96 -387q61 37 97.5 61.5t65.5 53.5t42 49t21 58.5t9.5 70.5t1.5 94v1024h123v-1024q0 -75 -2.5 -120t-15 -91t-30.5 -74t-56 -63t-84.5 -64.5t-122.5 -72.5zM139 1266v161h127v-161h-127z" />
<glyph unicode="k" horiz-adv-x="913" d="M141 0v1479h123v-881l144 4l315 422h141l-350 -469l354 -555h-139l-319 496l-146 -4v-492h-123z" />
<glyph unicode="l" horiz-adv-x="423" d="M152 0v1479h120v-1479h-120z" />
<glyph unicode="m" horiz-adv-x="1587" d="M141 0v1024h121l2 -168q6 8 16 20.5t43 45t67 57t83.5 45t95.5 20.5q59 0 108 -19t77 -46t47 -54t26 -46l7 -19q6 7 16 19.5t43 44.5t67.5 56t85 44t99.5 20q160 0 234.5 -107.5t74.5 -320.5v-616h-123v600q0 175 -47.5 255.5t-159.5 80.5q-41 0 -82.5 -18t-72.5 -43.5 t-56 -51t-38 -43.5l-13 -18q8 -68 8 -154v-608h-122v594q0 177 -48.5 259.5t-150.5 82.5q-39 0 -82.5 -21.5t-78 -52t-63.5 -61.5t-45 -53l-16 -21v-727h-123z" />
<glyph unicode="n" horiz-adv-x="1015" d="M141 0v1024h121l2 -168q5 8 15 20.5t42.5 45t66.5 57t85 45t100 20.5q310 0 310 -405v-639h-123v600q0 175 -47.5 255.5t-159.5 80.5q-42 0 -87 -21.5t-79.5 -52t-63.5 -61.5t-44 -53l-15 -21v-727h-123z" />
<glyph unicode="o" horiz-adv-x="995" d="M102 526q0 130 18.5 221.5t62.5 160t122 101.5t193 33t192.5 -33t121 -101.5t61.5 -159.5t18 -222q0 -78 -3.5 -135.5t-13.5 -117.5t-27.5 -102t-47 -80t-70.5 -61t-99 -36.5t-132 -13.5t-132.5 13.5t-100 36.5t-71 61t-47.5 80t-28 102t-13.5 117.5t-3.5 135.5zM223 526 q0 -67 1.5 -110.5t8 -94.5t17.5 -82.5t31.5 -63t49.5 -49t70.5 -28t96.5 -10.5q54 0 95.5 10.5t70.5 28t48.5 49t31 63t17.5 82.5t7.5 94.5t1.5 110.5q0 220 -57.5 315t-214.5 95t-216 -95t-59 -315z" />
<glyph unicode="p" horiz-adv-x="997" d="M141 -461v1485h121l2 -166q5 8 14 20.5t39.5 44.5t63.5 56.5t82.5 44.5t99.5 20q78 0 136 -24.5t95.5 -68t60.5 -110t32.5 -143t9.5 -174.5q0 -273 -93.5 -408.5t-311.5 -135.5q-46 0 -103 6.5t-91 13.5l-34 6v-467h-123zM264 111q121 -23 217 -23q164 0 227.5 106 t63.5 330q0 91 -9 159t-31.5 128.5t-67.5 92.5t-111 32q-46 0 -92.5 -22t-80.5 -53t-61 -62.5t-41 -53.5l-14 -22v-612z" />
<glyph unicode="q" horiz-adv-x="999" d="M102 496q0 285 95.5 415.5t318.5 130.5q45 0 130.5 -8t148.5 -16l63 -8v-1461h-123v613q-5 -7 -14 -19.5t-39.5 -44t-63.5 -55.5t-85 -43.5t-105 -19.5q-77 0 -135 27.5t-94 73t-58 113t-30.5 140t-8.5 162.5zM227 496q0 -99 10 -169.5t34.5 -126.5t70.5 -84t113 -28 q42 0 86.5 21.5t77.5 52t60 60.5t41 52l15 21v618q-144 23 -203 23q-168 0 -236.5 -97t-68.5 -343z" />
<glyph unicode="r" horiz-adv-x="634" d="M141 0v1024h123v-160q18 15 48.5 38.5t119 72t168.5 69.5v-131q-68 -16 -152 -55t-134 -70l-50 -30v-758h-123z" />
<glyph unicode="s" horiz-adv-x="870" d="M92 752q0 79 27.5 137t75.5 90.5t104 47.5t121 15q73 0 156.5 -7t130.5 -14l47 -7l-6 -101q-191 23 -324 23q-88 0 -147.5 -42.5t-59.5 -131.5q0 -37 9.5 -63.5t25.5 -44.5t46.5 -32t63 -23t84.5 -19q47 -9 74 -15t65 -16.5t59.5 -20.5t48 -25.5t40.5 -34t28 -43 t19.5 -56t5.5 -70.5q0 -91 -25 -154t-74.5 -98.5t-114 -51t-152.5 -15.5q-56 0 -137 9.5t-134 18.5l-53 10l8 103q210 -33 308 -33q130 0 190 44t60 157q0 48 -15.5 79t-51.5 49.5t-71.5 28t-97.5 21.5q-8 1 -12 2q-64 12 -107 23.5t-87 33t-69.5 50t-42 73t-16.5 103.5z " />
<glyph unicode="t" horiz-adv-x="661" d="M55 915v109h140v313h120v-313h303v-109h-303v-628q0 -98 35.5 -148.5t114.5 -50.5q26 0 67.5 3t69.5 6l29 3l6 -98q-116 -22 -184 -22q-142 0 -200 76t-58 225v634h-140z" />
<glyph unicode="u" horiz-adv-x="1015" d="M133 399v625h123v-600q0 -175 48 -255.5t159 -80.5q42 0 87 21.5t79.5 52t63.5 60.5t44 52l15 21v729h122v-1024h-120v168q-6 -8 -16 -20.5t-43 -45t-67.5 -57t-85.5 -45t-100 -20.5q-162 0 -235.5 102t-73.5 317z" />
<glyph unicode="v" horiz-adv-x="911" d="M51 1024h127l242 -918h72l241 918h125l-278 -1024h-250z" />
<glyph unicode="w" horiz-adv-x="1476" d="M63 1024h125l207 -918h41l236 898h131l237 -898h41l207 918h123l-231 -1024h-226l-217 838l-215 -838h-225z" />
<glyph unicode="x" horiz-adv-x="845" d="M47 1024h129l250 -424l246 424h125l-305 -514l305 -510h-129l-246 416l-246 -416h-127l305 508z" />
<glyph unicode="y" horiz-adv-x="911" d="M53 1024h125l242 -918h69l248 918h123l-409 -1485h-119l133 461h-133z" />
<glyph unicode="z" horiz-adv-x="864" d="M80 0v106l563 809h-563v109h702v-104l-563 -814h563v-106h-702z" />
<glyph unicode="{" horiz-adv-x="679" d="M53 582v106q30 5 61 19t62.5 38.5t51.5 65t20 90.5q0 41 -6 142t-6 133q0 189 83.5 275t274.5 87l4 -113q-141 -3 -191.5 -59.5t-50.5 -185.5q0 -18 7.5 -125t7.5 -131q0 -88 -20.5 -143.5t-58 -86.5t-104.5 -57q92 -33 137.5 -99t45.5 -173q0 -29 -7.5 -142.5 t-7.5 -150.5q0 -108 66.5 -160.5t175.5 -54.5l-4 -115q-165 2 -261.5 81.5t-96.5 250.5q0 34 7 143.5t7 138.5q0 35 -6.5 64t-21.5 50.5t-27.5 36.5t-37 28.5t-36 19t-38 15.5t-30.5 12z" />
<glyph unicode="|" horiz-adv-x="425" d="M152 -461v1940h122v-1940h-122z" />
<glyph unicode="}" horiz-adv-x="677" d="M80 -145q141 3 191.5 59.5t50.5 185.5q0 18 -7.5 125t-7.5 131q0 88 20 143.5t57.5 86.5t104.5 57q-92 33 -137 99t-45 173q0 29 7.5 142.5t7.5 150.5q0 108 -66.5 160.5t-175.5 54.5l4 115q165 -2 261.5 -81.5t96.5 -250.5q0 -34 -7 -143.5t-7 -138.5q0 -35 6.5 -64 t21.5 -50.5t27.5 -36.5t37 -28.5t36 -19t38 -15.5t30.5 -12v-106q-30 -5 -61 -19t-62.5 -38.5t-51.5 -65t-20 -90.5q0 -41 6 -142t6 -133q0 -189 -83.5 -275t-274.5 -87z" />
<glyph unicode="~" d="M139 551q5 5 14.5 12t37 26.5t54.5 34t62.5 26.5t65.5 12q49 0 131.5 -34t160 -68t115.5 -34q34 0 86 25t88 49l35 25l21 -103q-14 -12 -37.5 -30.5t-84.5 -49t-108 -30.5q-49 0 -132 34t-161 67.5t-114 33.5t-89 -25.5t-88 -50.5l-36 -25z" />
<glyph unicode="&#xa1;" horiz-adv-x="419" d="M145 -410l9 977h112l4 -977h-125zM145 819v205h125v-205h-125z" />
<glyph unicode="&#xa2;" d="M231 508q0 219 88 323t252 115v252h107v-256l205 -20l-6 -113q-182 16 -256 16q-146 0 -205.5 -73t-59.5 -244q0 -65 6 -110t23 -85.5t48 -64.5t81 -37.5t121 -13.5q33 0 94.5 4t106.5 8l45 4l4 -111q-125 -14 -205 -18v-252h-107v248q-81 1 -142.5 24.5t-99 61.5 t-60.5 94t-31.5 115.5t-8.5 132.5z" />
<glyph unicode="&#xa3;" d="M162 0v109h192v634h-153v109h153v111q0 87 4.5 144t21.5 116t47 92.5t82.5 54.5t127.5 21q36 0 104.5 -7.5t118.5 -15.5l51 -8l-2 -103q-182 23 -262 23q-25 0 -45 -3.5t-36 -13t-28 -18t-21 -26.5l-15.5 -31t-10 -38t-6 -41.5t-3.5 -48t-1 -49.5v-55v-104h408v-109h-408 v-634h314l153 32l19 -104l-156 -37h-649z" />
<glyph unicode="&#xa4;" d="M133 164l146 141q-67 94 -68 210t65 210l-143 143l88 88l141 -145q94 66 210 66t210 -66l144 145l88 -88l-146 -143q66 -94 66 -210t-66 -210l146 -141l-88 -88l-144 143q-94 -66 -210 -65.5t-210 67.5l-141 -145zM330 516q0 -102 69 -174q72 -69 173.5 -69t172.5 69 q71 72 71 174t-71 172t-172.5 70t-173.5 -70q-69 -70 -69 -172z" />
<glyph unicode="&#xa5;" d="M72 1354h137l366 -613l361 613h139l-350 -592h276v-113h-339l-23 -35v-157h362v-113h-362v-344h-127v344h-367v113h367v157l-20 35h-347v113h277z" />
<glyph unicode="&#xa6;" horiz-adv-x="434" d="M156 311h123v-772h-123v772zM156 711v768h123v-768h-123z" />
<glyph unicode="&#xa7;" horiz-adv-x="946" d="M102 543q0 110 105 250q-45 43 -65.5 90.5t-20.5 138.5q0 144 90 229.5t274 85.5q56 0 134 -7.5t128 -15.5l50 -7l-6 -113q-210 29 -302 29q-116 0 -182.5 -43.5t-66.5 -149.5q0 -56 13.5 -92t50 -60.5t83.5 -39t131 -31.5q79 -15 130 -33t97 -50.5t67.5 -84t21.5 -125.5 q0 -51 -18 -113.5t-33.5 -96.5t-26.5 -52q67 -56 67 -199q0 -168 -90 -253t-264 -85q-54 0 -138 8.5t-141 16.5l-57 8l12 111q212 -29 318 -29q248 0 248 217q0 34 -7.5 59.5t-25.5 44.5t-38 32t-56.5 24.5t-67.5 18t-84 16.5q-86 16 -143 36t-101.5 54t-65 86t-20.5 125z M217 559q0 -93 56.5 -135.5t187.5 -65.5q147 -23 203 -57q5 5 16.5 32t24 75.5t12.5 91.5q0 42 -12 73.5t-28.5 50t-48 33t-56.5 21t-68 14.5q-186 41 -213 56q-74 -111 -74 -189z" />
<glyph unicode="&#xa8;" horiz-adv-x="1478" d="M207 1280v168h100v-168h-100zM573 1280v168h99v-168h-99z" />
<glyph unicode="&#xa9;" horiz-adv-x="1296" d="M115 889q0 153 68.5 279.5t190.5 200t273 73.5q152 0 275.5 -74.5t191.5 -201t68 -277.5q0 -153 -68 -279.5t-191 -200t-276 -73.5q-151 0 -273 74t-190.5 200.5t-68.5 278.5zM195 889q0 -197 129 -335t323 -138q128 0 232.5 63.5t162.5 171.5t58 238q0 197 -130 335 t-323 138t-322.5 -138t-129.5 -335zM418 889q0 162 51.5 240.5t183.5 78.5q37 0 76 -4.5t59 -9.5l21 -4l-6 -94q-80 14 -146 14q-85 0 -111 -51t-26 -170q0 -116 28.5 -168.5t108.5 -52.5q26 0 62.5 3.5t60.5 6.5l23 4l6 -92q-82 -21 -158 -21q-130 0 -181.5 77.5 t-51.5 242.5z" />
<glyph unicode="&#xaa;" horiz-adv-x="757" d="M109 932q0 81 44.5 122.5t135.5 47.5l190 12v45q0 53 -24 74.5t-78 21.5q-33 0 -89 -3.5t-96 -7.5l-40 -3l-7 82q144 27 236 27q105 0 155 -44.5t50 -150.5v-278q19 -28 67 -39l-4 -84q-63 0 -92.5 11t-56.5 38q-117 -49 -228 -49q-75 0 -119 48t-44 130zM219 932 q0 -86 76 -86q36 0 82 9t74 19l28 9v149l-172 -10q-47 -3 -67.5 -24t-20.5 -66z" />
<glyph unicode="&#xab;" horiz-adv-x="997" d="M217 479v66l346 278v-112l-250 -199l250 -217v-113zM381 479v66l346 278v-112l-250 -199l250 -217v-113z" />
<glyph unicode="&#xac;" d="M137 580v112h873v-446h-117v334h-756z" />
<glyph unicode="&#xad;" horiz-adv-x="776" d="M135 492v114h508v-114h-508z" />
<glyph unicode="&#xae;" horiz-adv-x="1296" d="M115 889q0 153 68.5 279.5t190.5 200t273 73.5q152 0 275.5 -74.5t191.5 -201t68 -277.5q0 -153 -68 -279.5t-191 -200t-276 -73.5q-151 0 -273 74t-190.5 200.5t-68.5 278.5zM195 889q0 -197 129.5 -335t322.5 -138q128 0 232.5 63.5t162.5 171.5t58 238q0 197 -130 335 t-323 138t-322.5 -138t-129.5 -335zM428 580v614h213q117 0 174 -43t57 -147q0 -76 -24 -120t-84 -65l121 -239h-107l-112 227h-140v-227h-98zM526 891h138q61 0 86.5 24.5t25.5 85.5q0 59 -34 84t-107 25h-109v-219z" />
<glyph unicode="&#xaf;" horiz-adv-x="886" d="M164 1315v96h545v-96h-545z" />
<glyph unicode="&#xb0;" d="M287 1157q0 128 79.5 207.5t206.5 79.5t206 -79.5t79 -207.5q0 -127 -78.5 -205t-206.5 -78t-207 78t-79 205zM379 1157q0 -89 52.5 -142.5t141.5 -53.5q90 0 144.5 53.5t54.5 142.5t-55 144t-144 55t-141.5 -54.5t-52.5 -144.5z" />
<glyph unicode="&#xb1;" d="M117 86v115h913v-115h-913zM117 610v115h395v266h117v-266h401v-115h-401v-272h-117v272h-395z" />
<glyph unicode="&#xb2;" horiz-adv-x="573" d="M68 979v98l188 191q55 55 80.5 93.5t25.5 86.5q0 84 -106 84q-28 0 -72.5 -5t-75.5 -11l-30 -5l-4 101q114 24 202 24q101 0 150 -44t49 -136q0 -67 -31 -119.5t-98 -117.5l-137 -140h276v-100h-417z" />
<glyph unicode="&#xb3;" horiz-adv-x="573" d="M68 981l6 96q115 -16 209 -16q110 0 110 96q0 55 -27 77.5t-77 22.5h-133v97h131q33 0 61.5 31t28.5 73q0 39 -24.5 58.5t-80.5 19.5q-39 0 -86.5 -4t-75.5 -8l-28 -4l-6 96q115 20 205 20q106 0 157 -40.5t51 -127.5q0 -102 -88 -155q56 -17 81.5 -49t25.5 -109 q0 -99 -55.5 -148t-159.5 -49q-44 0 -100.5 6t-90.5 12z" />
<glyph unicode="&#xb4;" horiz-adv-x="1110" d="M258 1321l404 197l38 -107l-405 -180z" />
<glyph unicode="&#xb5;" d="M203 -461v1485h123v-600q0 -175 47.5 -255.5t158.5 -80.5q42 0 87 21.5t80 52t63.5 60.5t43.5 52l15 21v729h123v-1024h-121v168q-6 -8 -16 -20.5t-42.5 -45t-67 -57t-85.5 -45t-100 -20.5q-113 0 -186 51v-492h-123z" />
<glyph unicode="&#xb6;" horiz-adv-x="1130" d="M68 1036q0 176 90.5 287t267.5 111h635v-111h-158v-1323h-106v1323h-252v-1323h-107v692q-164 0 -267 102.5t-103 241.5z" />
<glyph unicode="&#xb7;" horiz-adv-x="397" d="M135 520v215h127v-215h-127z" />
<glyph unicode="&#xb8;" horiz-adv-x="1619" d="M748 -412l6 90q80 -8 135 -8q88 0 88 80q0 43 -23 57.5t-65 14.5h-88v188h73v-108h15q42 0 74 -6.5t60.5 -22.5t44 -48t15.5 -79q0 -86 -46.5 -128t-127.5 -42q-37 0 -77.5 3t-61.5 6z" />
<glyph unicode="&#xb9;" horiz-adv-x="573" d="M78 1477l207 141h104v-639h-110v518l-150 -102z" />
<glyph unicode="&#xba;" horiz-adv-x="720" d="M109 1053q0 153 64 224t189 71q174 0 224 -125q28 -65 28 -170q0 -303 -252 -303q-211 0 -247 206q-6 44 -6 97zM217 1053q0 -11 6 -80q10 -66 42.5 -93.5t96.5 -27.5q79 0 111.5 44.5t32.5 156.5q0 29 -4 75q-12 64 -44.5 89.5t-95.5 25.5q-79 0 -112 -42t-33 -148z" />
<glyph unicode="&#xbb;" horiz-adv-x="1007" d="M279 195v112l249 199l-249 217v113l346 -297v-66zM434 195v112l250 199l-250 217v113l346 -297v-66z" />
<glyph unicode="&#xbc;" horiz-adv-x="1122" d="M45 1477l207 141h104v-639h-110v518l-150 -102zM178 29l539 1413l112 -41l-538 -1415zM598 104v95l156 440h118l-159 -432h176l8 178h100v-178h64v-103h-64v-104h-108v104h-291z" />
<glyph unicode="&#xbd;" horiz-adv-x="1165" d="M45 1477l207 141h104v-639h-110v518l-150 -102zM178 29l539 1413l112 -41l-538 -1415zM668 0v98l188 191q56 56 81.5 94t25.5 86q0 84 -107 84q-28 0 -72.5 -5.5t-75.5 -10.5l-30 -5l-4 101q115 24 203 24q101 0 149.5 -44t48.5 -136q0 -67 -31 -119.5t-98 -117.5 l-137 -140h276v-100h-417z" />
<glyph unicode="&#xbe;" horiz-adv-x="1175" d="M84 981l6 96q115 -16 209 -16q56 0 83.5 25.5t27.5 70.5q0 100 -105 100h-133v97h131q33 0 61.5 31t28.5 73q0 39 -24 58.5t-80 19.5q-39 0 -87 -4t-76 -8l-28 -4l-6 96q115 20 205 20q107 0 158 -40.5t51 -127.5q0 -102 -88 -155q56 -17 81 -49t25 -109 q0 -99 -55.5 -148t-159.5 -49q-44 0 -100.5 6t-90.5 12zM233 29l539 1413l113 -41l-539 -1415zM655 104v95l156 440h119l-160 -432h176l8 178h101v-178h63v-103h-63v-104h-109v104h-291z" />
<glyph unicode="&#xbf;" horiz-adv-x="819" d="M70 -80q0 90 43.5 165.5t171.5 221.5q67 77 98 131.5t31 110.5v82h118q9 -57 9 -96q0 -79 -35 -139t-133 -173q-106 -128 -139 -183t-33 -120q0 -131 57.5 -177t198.5 -46q52 0 124 10.5t118 21.5l46 11l17 -105q-190 -53 -313 -53q-198 0 -288.5 76t-90.5 262zM414 811 v213h129v-213h-129z" />
<glyph unicode="&#xc0;" horiz-adv-x="1132" d="M49 0l387 1423h262l385 -1423h-127l-108 391h-561l-111 -391h-127zM276 1792l41 106l402 -196l-37 -90zM311 502h508l-219 807h-68z" />
<glyph unicode="&#xc1;" horiz-adv-x="1132" d="M49 0l387 1423h262l385 -1423h-127l-108 391h-561l-111 -391h-127zM311 502h508l-219 807h-68zM412 1706l403 199l41 -107l-405 -180z" />
<glyph unicode="&#xc2;" horiz-adv-x="1132" d="M49 0l387 1423h262l385 -1423h-127l-108 391h-561l-111 -391h-127zM264 1632l264 275h66l268 -275h-123l-176 174l-178 -174h-121zM311 502h508l-219 807h-68z" />
<glyph unicode="&#xc3;" horiz-adv-x="1132" d="M49 0l387 1423h262l385 -1423h-127l-108 391h-561l-111 -391h-127zM240 1761q5 5 13 13.5t31.5 29.5t45 37t48 29.5t46.5 13.5q39 0 104.5 -30t124 -59.5t82.5 -29.5q16 0 51.5 24t63.5 49l27 24l26 -84q-12 -14 -31.5 -34t-65.5 -53.5t-75 -33.5q-36 0 -100 30.5 t-124 60.5t-87 30q-20 0 -59 -26t-68 -52l-29 -25zM311 502h508l-219 807h-68z" />
<glyph unicode="&#xc4;" horiz-adv-x="1132" d="M49 0l387 1423h262l385 -1423h-127l-108 391h-561l-111 -391h-127zM311 502h508l-219 807h-68zM328 1679v170h98v-170h-98zM705 1679v170h98v-170h-98z" />
<glyph unicode="&#xc5;" horiz-adv-x="1132" d="M49 0l375 1376q-55 49 -55 150q0 97 52 146.5t146 49.5q92 0 146.5 -50t54.5 -146q0 -99 -57 -150l372 -1376h-127l-108 391h-561l-111 -391h-127zM311 502h508l-219 807h-68zM451 1526q0 -41 20 -68t55 -35h80q76 16 76 103q0 52 -29.5 80t-85.5 28q-55 0 -85.5 -28 t-30.5 -80z" />
<glyph unicode="&#xc6;" horiz-adv-x="1599" d="M49 0l387 1427h1073v-116h-665v-529h549v-114h-549v-551h665v-117h-786v391h-444l-109 -391h-121zM305 506h418v805h-199z" />
<glyph unicode="&#xc7;" horiz-adv-x="1028" d="M115 709q0 141 13 248.5t45.5 202t86 155t137.5 95t197 34.5q77 0 165.5 -11t138.5 -21l50 -11l-8 -109q-191 37 -336 37q-89 0 -153.5 -29.5t-103.5 -80t-62 -132t-31 -169.5t-8 -209q0 -118 8 -205t31 -168t62.5 -131.5t104 -80.5t154.5 -30q57 0 140.5 9t138.5 17 l55 9l8 -106q-190 -41 -346 -43v-78h14q42 0 74 -6.5t61 -22.5t44.5 -48t15.5 -79q0 -86 -46.5 -128t-127.5 -42q-37 0 -77.5 3t-62.5 6l-22 3l6 90q80 -8 135 -8q89 0 89 80q0 43 -23.5 57.5t-65.5 14.5h-88v162q-100 9 -173 47t-118.5 98t-73 151t-38 192.5t-10.5 236.5z " />
<glyph unicode="&#xc8;" horiz-adv-x="1040" d="M164 0v1423h784v-112h-659v-529h545v-112h-545v-557h659v-113h-784zM297 1792l41 106l401 -196l-37 -90z" />
<glyph unicode="&#xc9;" horiz-adv-x="1040" d="M164 0v1423h784v-112h-659v-529h545v-112h-545v-557h659v-113h-784zM365 1706l403 199l41 -107l-406 -180z" />
<glyph unicode="&#xca;" horiz-adv-x="1040" d="M164 0v1423h784v-112h-659v-529h545v-112h-545v-557h659v-113h-784zM258 1634l264 275h66l268 -275h-123l-176 174l-178 -174h-121z" />
<glyph unicode="&#xcb;" horiz-adv-x="1040" d="M164 0v1423h784v-112h-659v-529h545v-112h-545v-557h659v-113h-784zM334 1679v170h98v-170h-98zM711 1679v170h98v-170h-98z" />
<glyph unicode="&#xcc;" horiz-adv-x="452" d="M-104 1792l41 106l401 -196l-37 -90zM164 0v1423h125v-1423h-125z" />
<glyph unicode="&#xcd;" horiz-adv-x="452" d="M96 1706l404 199l41 -107l-406 -180zM164 0v1423h125v-1423h-125z" />
<glyph unicode="&#xce;" horiz-adv-x="452" d="M-74 1626l264 275h66l268 -275h-123l-176 174l-178 -174h-121zM164 0v1423h125v-1423h-125z" />
<glyph unicode="&#xcf;" horiz-adv-x="452" d="M-10 1686v169h98v-169h-98zM164 0v1423h125v-1423h-125zM367 1686v169h98v-169h-98z" />
<glyph unicode="&#xd0;" horiz-adv-x="1239" d="M31 651v127h141v645h473q262 0 369.5 -161.5t107.5 -526.5q0 -151 -14 -264t-47.5 -204.5t-88 -148.5t-136 -87.5t-191.5 -30.5h-473v651h-141zM297 113h348q82 0 142 28t99 78t62.5 129t33 171.5t9.5 215.5q0 122 -9.5 210t-33 159.5t-62.5 115t-99 66.5t-142 23h-348 v-531h307v-127h-307v-538z" />
<glyph unicode="&#xd1;" horiz-adv-x="1275" d="M164 0v1423h233l555 -1298h39v1298h123v-1423h-231l-555 1298h-39v-1298h-125zM311 1757q13 14 34 34.5t70.5 54.5t80.5 34q39 0 104.5 -30t124 -59.5t82.5 -29.5q16 0 51.5 24t62.5 49l27 24l27 -84q-12 -14 -31.5 -34t-65.5 -53.5t-75 -33.5q-36 0 -100 30.5t-124 60.5 t-87 30q-20 0 -59 -26t-68 -52l-29 -25z" />
<glyph unicode="&#xd2;" horiz-adv-x="1263" d="M117 723q0 267 42.5 420.5t155.5 226.5q115 74 318 74q127 0 217 -28.5t148 -82t91 -144.5t45.5 -200t12.5 -266q0 -280 -46.5 -442t-170.5 -236q-112 -65 -297 -65q-91 0 -162.5 15.5t-126 44.5t-93.5 76.5t-65 105.5t-41.5 137.5t-21.5 166t-6 197.5zM248 723 q0 -99 3.5 -169.5t13 -140.5t27.5 -117t46 -88t69 -64.5t97 -36.5t129 -13q128 0 201 37q111 53 146.5 189t35.5 403q0 99 -3.5 168.5t-13 137.5t-27 112t-46 83t-69 60t-96 33t-128.5 12q-128 0 -197 -31q-60 -25 -98 -70.5t-57.5 -122t-26 -162.5t-6.5 -220zM371 1792 l41 106l401 -196l-37 -90z" />
<glyph unicode="&#xd3;" horiz-adv-x="1263" d="M117 723q0 267 42.5 420.5t155.5 226.5q115 74 318 74q127 0 217 -28.5t148 -82t91 -144.5t45.5 -200t12.5 -266q0 -280 -46.5 -442t-170.5 -236q-112 -65 -297 -65q-91 0 -162.5 15.5t-126 44.5t-93.5 76.5t-65 105.5t-41.5 137.5t-21.5 166t-6 197.5zM248 723 q0 -99 3.5 -169.5t13 -140.5t27.5 -117t46 -88t69 -64.5t97 -36.5t129 -13q128 0 201 37q111 53 146.5 189t35.5 403q0 99 -3.5 168.5t-13 137.5t-27 112t-46 83t-69 60t-96 33t-128.5 12q-128 0 -197 -31q-60 -25 -98 -70.5t-57.5 -122t-26 -162.5t-6.5 -220zM461 1706 l403 199l41 -107l-405 -180z" />
<glyph unicode="&#xd4;" horiz-adv-x="1263" d="M117 723q0 267 42.5 420.5t155.5 226.5q115 74 318 74q127 0 217 -28.5t148 -82t91 -144.5t45.5 -200t12.5 -266q0 -280 -46.5 -442t-170.5 -236q-112 -65 -297 -65q-91 0 -162.5 15.5t-126 44.5t-93.5 76.5t-65 105.5t-41.5 137.5t-21.5 166t-6 197.5zM248 723 q0 -99 3.5 -169.5t13 -140.5t27.5 -117t46 -88t69 -64.5t97 -36.5t129 -13q128 0 201 37q111 53 146.5 189t35.5 403q0 99 -3.5 168.5t-13 137.5t-27 112t-46 83t-69 60t-96 33t-128.5 12q-128 0 -197 -31q-60 -25 -98 -70.5t-57.5 -122t-26 -162.5t-6.5 -220zM334 1632 l264 275h66l268 -275h-123l-176 174l-178 -174h-121z" />
<glyph unicode="&#xd5;" horiz-adv-x="1263" d="M117 723q0 267 42.5 420.5t155.5 226.5q115 74 318 74q127 0 217 -28.5t148 -82t91 -144.5t45.5 -200t12.5 -266q0 -280 -46.5 -442t-170.5 -236q-112 -65 -297 -65q-91 0 -162.5 15.5t-126 44.5t-93.5 76.5t-65 105.5t-41.5 137.5t-21.5 166t-6 197.5zM248 723 q0 -99 3.5 -169.5t13 -140.5t27.5 -117t46 -88t69 -64.5t97 -36.5t129 -13q128 0 201 37q111 53 146.5 189t35.5 403q0 99 -3.5 168.5t-13 137.5t-27 112t-46 83t-69 60t-96 33t-128.5 12q-128 0 -197 -31q-60 -25 -98 -70.5t-57.5 -122t-26 -162.5t-6.5 -220zM309 1757 q13 14 34 34.5t70.5 54.5t80.5 34q39 0 104.5 -30t124 -59.5t82.5 -29.5q16 0 51.5 24t62.5 49l27 24l27 -84q-12 -14 -31.5 -34t-65.5 -53.5t-75 -33.5q-45 0 -163 60.5t-149 60.5q-20 0 -58.5 -26t-67.5 -52l-29 -25z" />
<glyph unicode="&#xd6;" horiz-adv-x="1263" d="M117 723q0 267 42.5 420.5t155.5 226.5q115 74 318 74q127 0 217 -28.5t148 -82t91 -144.5t45.5 -200t12.5 -266q0 -280 -46.5 -442t-170.5 -236q-112 -65 -297 -65q-91 0 -162.5 15.5t-126 44.5t-93.5 76.5t-65 105.5t-41.5 137.5t-21.5 166t-6 197.5zM248 723 q0 -99 3.5 -169.5t13 -140.5t27.5 -117t46 -88t69 -64.5t97 -36.5t129 -13q128 0 201 37q111 53 146.5 189t35.5 403q0 99 -3.5 168.5t-13 137.5t-27 112t-46 83t-69 60t-96 33t-128.5 12q-128 0 -197 -31q-60 -25 -98 -70.5t-57.5 -122t-26 -162.5t-6.5 -220zM387 1683v170 h113v-170h-113zM768 1683v170h111v-170h-111z" />
<glyph unicode="&#xd7;" d="M154 174l342 340l-342 338l79 82l340 -344l340 344l80 -80l-344 -340l344 -340l-80 -82l-340 344l-340 -342z" />
<glyph unicode="&#xd8;" horiz-adv-x="1263" d="M117 723q0 267 42.5 420.5t155.5 226.5q115 74 318 74q156 0 260 -43l100 225l90 -35l-106 -241q96 -78 133 -227.5t37 -399.5q0 -280 -46.5 -442t-170.5 -236q-112 -65 -297 -65q-150 0 -248 40l-111 -251l-88 41l115 258q-105 80 -144.5 236.5t-39.5 418.5zM248 723 q0 -219 21 -344t85 -193l236 533l254 571q-83 39 -211 39t-197 -31q-60 -25 -98 -70.5t-57.5 -122t-26 -162.5t-6.5 -220zM434 129q71 -35 199 -35t201 37q111 53 146.5 189t35.5 403q0 204 -19 322t-75 184l-242 -549z" />
<glyph unicode="&#xd9;" horiz-adv-x="1220" d="M156 420v1003h125v-1009q0 -170 80 -246t249 -76q170 0 250 75.5t80 246.5v1009h127v-1003q0 -223 -113.5 -331.5t-343.5 -108.5q-229 0 -341.5 108t-112.5 332zM350 1792l41 106l402 -196l-37 -90z" />
<glyph unicode="&#xda;" horiz-adv-x="1220" d="M156 420v1003h125v-1009q0 -170 80 -246t249 -76q170 0 250 75.5t80 246.5v1009h127v-1003q0 -223 -113.5 -331.5t-343.5 -108.5q-229 0 -341.5 108t-112.5 332zM422 1706l403 199l41 -107l-405 -180z" />
<glyph unicode="&#xdb;" horiz-adv-x="1220" d="M156 420v1003h125v-1009q0 -170 80 -246t249 -76q170 0 250 75.5t80 246.5v1009h127v-1003q0 -223 -113.5 -331.5t-343.5 -108.5q-229 0 -341.5 108t-112.5 332zM219 1733l264 274h66l268 -274h-123l-176 174l-178 -174h-121z" />
<glyph unicode="&#xdc;" horiz-adv-x="1220" d="M156 420v1003h125v-1009q0 -170 80 -246t249 -76q170 0 250 75.5t80 246.5v1009h127v-1003q0 -223 -113.5 -331.5t-343.5 -108.5q-229 0 -341.5 108t-112.5 332zM365 1683v170h114v-170h-114zM745 1683v170h111v-170h-111z" />
<glyph unicode="&#xdd;" horiz-adv-x="1017" d="M25 1423h139l346 -684l340 684h137l-418 -823v-600h-120v600zM348 1706l404 199l41 -107l-406 -180z" />
<glyph unicode="&#xde;" horiz-adv-x="1136" d="M164 0v1427h123v-235h346q198 0 311 -114t113 -349q0 -224 -106 -348.5t-318 -124.5h-346v-256h-123zM287 371h346q76 0 133.5 27t92 75.5t51 112.5t16.5 143q0 74 -15.5 134.5t-49 110.5t-91.5 77.5t-137 27.5h-346v-708z" />
<glyph unicode="&#xdf;" horiz-adv-x="1079" d="M141 0v1116q0 113 21 187.5t67.5 117.5t111.5 60.5t163 17.5q195 0 275.5 -68t80.5 -221q0 -107 -32 -161.5t-115 -98.5q-69 -39 -94 -63.5t-25 -61.5q0 -43 31 -71t127 -80q62 -34 98 -56.5t70.5 -52t51 -59.5t26.5 -71t10 -95q0 -191 -86 -275.5t-271 -84.5 q-41 0 -99.5 5t-97.5 10l-38 5l4 100q152 -12 213 -12q141 0 198.5 60t57.5 188q0 90 -39 133.5t-176 116.5q-109 58 -154 105.5t-45 125.5q0 74 31 116t123 91q63 34 87.5 74t24.5 110q0 107 -51.5 146t-185.5 39q-65 0 -108 -11.5t-76 -41.5t-47.5 -85t-14.5 -141v-1114 h-117z" />
<glyph unicode="&#xe0;" horiz-adv-x="1001" d="M102 489q0 105 10.5 185.5t38 152.5t73 118t117.5 72.5t169 26.5q48 0 135 -8.5t150 -17.5l63 -8v-768q0 -47 3 -107.5t6 -97.5l3 -37l-122 -4q-11 100 -11 188q-5 -8 -14 -22t-39.5 -49t-64.5 -62t-87 -49t-108 -22q-174 0 -248 125.5t-74 383.5zM229 489 q0 -95 9.5 -164t33 -125t67 -84t107.5 -28q47 0 94.5 24t81 58t61 67.5t41.5 57.5l13 24v596q-152 21 -209 21q-73 0 -125.5 -19.5t-86 -54t-53 -92t-27 -123.5t-7.5 -158zM295 1415l41 101l401 -193l-35 -90z" />
<glyph unicode="&#xe1;" horiz-adv-x="1001" d="M102 489q0 105 10.5 185.5t38 152.5t73 118t117.5 72.5t169 26.5q48 0 135 -8.5t150 -17.5l63 -8v-768q0 -47 3 -107.5t6 -97.5l3 -37l-122 -4q-11 100 -11 188q-5 -8 -14 -22t-39.5 -49t-64.5 -62t-87 -49t-108 -22q-174 0 -248 125.5t-74 383.5zM229 489 q0 -95 9.5 -164t33 -125t67 -84t107.5 -28q47 0 94.5 24t81 58t61 67.5t41.5 57.5l13 24v596q-152 21 -209 21q-73 0 -125.5 -19.5t-86 -54t-53 -92t-27 -123.5t-7.5 -158zM377 1321l403 197l39 -107l-405 -180z" />
<glyph unicode="&#xe2;" horiz-adv-x="1001" d="M102 489q0 105 10.5 185.5t38 152.5t73 118t117.5 72.5t169 26.5q48 0 135 -8.5t150 -17.5l63 -8v-768q0 -47 3 -107.5t6 -97.5l3 -37l-122 -4q-11 100 -11 188q-5 -8 -14 -22t-39.5 -49t-64.5 -62t-87 -49t-108 -22q-174 0 -248 125.5t-74 383.5zM229 489 q0 -95 9.5 -164t33 -125t67 -84t107.5 -28q47 0 94.5 24t81 58t61 67.5t41.5 57.5l13 24v596q-152 21 -209 21q-73 0 -125.5 -19.5t-86 -54t-53 -92t-27 -123.5t-7.5 -158zM233 1208l244 297h88l248 -297h-135l-156 185l-155 -185h-134z" />
<glyph unicode="&#xe3;" horiz-adv-x="1001" d="M102 489q0 105 10.5 185.5t38 152.5t73 118t117.5 72.5t169 26.5q48 0 135 -8.5t150 -17.5l63 -8v-768q0 -47 3 -107.5t6 -97.5l3 -37l-122 -4q-11 100 -11 188q-5 -8 -14 -22t-39.5 -49t-64.5 -62t-87 -49t-108 -22q-174 0 -248 125.5t-74 383.5zM229 489 q0 -95 9.5 -164t33 -125t67 -84t107.5 -28q47 0 94.5 24t81 58t61 67.5t41.5 57.5l13 24v596q-152 21 -209 21q-73 0 -125.5 -19.5t-86 -54t-53 -92t-27 -123.5t-7.5 -158zM244 1372q11 12 29.5 30t63.5 47.5t77 29.5q43 0 151 -50.5t131 -50.5q19 0 51.5 20t54.5 40l23 20 l25 -88q-4 -4 -10.5 -11t-25.5 -24t-37 -30t-41.5 -24t-41.5 -11q-44 0 -150 50t-134 50q-21 0 -56.5 -22t-60.5 -44l-25 -22z" />
<glyph unicode="&#xe4;" horiz-adv-x="1001" d="M102 489q0 105 10.5 185.5t38 152.5t73 118t117.5 72.5t169 26.5q48 0 135 -8.5t150 -17.5l63 -8v-768q0 -47 3 -107.5t6 -97.5l3 -37l-122 -4q-11 100 -11 188q-5 -8 -14 -22t-39.5 -49t-64.5 -62t-87 -49t-108 -22q-174 0 -248 125.5t-74 383.5zM229 489 q0 -95 9.5 -164t33 -125t67 -84t107.5 -28q47 0 94.5 24t81 58t61 67.5t41.5 57.5l13 24v596q-152 21 -209 21q-73 0 -125.5 -19.5t-86 -54t-53 -92t-27 -123.5t-7.5 -158zM260 1280v168h115v-168h-115zM641 1280v168h111v-168h-111z" />
<glyph unicode="&#xe5;" horiz-adv-x="1001" d="M102 489q0 105 10.5 185.5t38 152.5t73 118t117.5 72.5t169 26.5q48 0 135 -8.5t150 -17.5l63 -8v-768q0 -47 3 -107.5t6 -97.5l3 -37l-122 -4q-11 100 -11 188q-5 -8 -14 -22t-39.5 -49t-64.5 -62t-87 -49t-108 -22q-174 0 -248 125.5t-74 383.5zM229 489 q0 -95 9.5 -164t33 -125t67 -84t107.5 -28q47 0 94.5 24t81 58t61 67.5t41.5 57.5l13 24v596q-152 21 -209 21q-73 0 -125.5 -19.5t-86 -54t-53 -92t-27 -123.5t-7.5 -158zM360 1360q0 84 51.5 139t133.5 55q79 0 128.5 -55t49.5 -139q0 -90 -49 -142.5t-129 -52.5 q-85 0 -135 52.5t-50 142.5zM438 1360q0 -46 31.5 -78.5t75.5 -32.5q42 0 71 32.5t29 78.5q0 44 -28.5 75t-71.5 31q-44 0 -75.5 -31t-31.5 -75z" />
<glyph unicode="&#xe6;" horiz-adv-x="1552" d="M84 289q0 132 52 198t169 91q127 27 381 49q0 130 -15 180q-33 115 -165 115q-63 0 -154.5 -6t-151.5 -12l-61 -5l-4 117q221 26 373 26q208 0 266 -170q95 170 311 170q285 0 351 -266q24 -102 24 -229v-90h-653q0 -108 20 -181q25 -90 83.5 -135t160.5 -45q60 0 147 5 t144 9l57 5l4 -107q-204 -28 -358 -28q-195 0 -285 116q-254 -116 -436 -116q-130 0 -195 87t-65 222zM203 293q0 -50 13.5 -93t49.5 -74.5t90 -31.5q148 0 379 82q-51 116 -51 346q-104 -8 -305 -35q-93 -15 -134.5 -59.5t-41.5 -134.5zM807 565h534q0 162 -38 242 q-56 123 -220 123q-276 0 -276 -365z" />
<glyph unicode="&#xe7;" horiz-adv-x="815" d="M102 528q0 271 94 392.5t304 121.5q42 0 101 -6t97 -12l39 -6l-6 -103q-137 19 -211 19q-163 0 -227 -96t-64 -310q0 -89 5.5 -150.5t23 -120t49 -93t85 -55.5t128.5 -21q33 0 85.5 4t88.5 8l37 4l6 -98q-145 -26 -237 -26h-21v-78h15q42 0 74 -6.5t60.5 -22.5t44 -48 t15.5 -79q0 -86 -46.5 -128t-127.5 -42q-37 0 -77.5 3t-62.5 6l-22 3l6 90q81 -8 136 -8q88 0 88 80q0 43 -23 57.5t-65 14.5h-88v164q-93 13 -153.5 54t-93 113.5t-45 160t-12.5 214.5z" />
<glyph unicode="&#xe8;" horiz-adv-x="921" d="M100 502q0 540 412 540q152 0 239 -65.5t87 -198.5q0 -178 -114.5 -244.5t-383.5 -66.5h-115v-29q0 -350 254 -350q64 0 142.5 10t124.5 20l47 11l8 -92q-16 -6 -45 -15t-115 -24.5t-168 -15.5q-197 0 -285 122.5t-88 397.5zM225 567h115q209 0 292 43t83 166 q0 87 -53 124.5t-152 37.5q-147 0 -214.5 -93.5t-70.5 -277.5zM233 1415l41 101l402 -193l-35 -90z" />
<glyph unicode="&#xe9;" horiz-adv-x="921" d="M100 502q0 540 412 540q152 0 239 -65.5t87 -198.5q0 -178 -114.5 -244.5t-383.5 -66.5h-115v-29q0 -350 254 -350q64 0 142.5 10t124.5 20l47 11l8 -92q-16 -6 -45 -15t-115 -24.5t-168 -15.5q-197 0 -285 122.5t-88 397.5zM225 567h115q209 0 292 43t83 166 q0 87 -53 124.5t-152 37.5q-147 0 -214.5 -93.5t-70.5 -277.5zM295 1321l403 197l39 -107l-405 -180z" />
<glyph unicode="&#xea;" horiz-adv-x="921" d="M100 502q0 540 412 540q152 0 239 -65.5t87 -198.5q0 -178 -114.5 -244.5t-383.5 -66.5h-115v-29q0 -350 254 -350q64 0 142.5 10t124.5 20l47 11l8 -92q-16 -6 -45 -15t-115 -24.5t-168 -15.5q-197 0 -285 122.5t-88 397.5zM205 1208l246 297h86l247 -297h-133l-155 185 l-158 -185h-133zM225 567h115q209 0 292 43t83 166q0 87 -53 124.5t-152 37.5q-147 0 -214.5 -93.5t-70.5 -277.5z" />
<glyph unicode="&#xeb;" horiz-adv-x="921" d="M100 502q0 540 412 540q152 0 239 -65.5t87 -198.5q0 -178 -114.5 -244.5t-383.5 -66.5h-115v-29q0 -350 254 -350q64 0 142.5 10t124.5 20l47 11l8 -92q-16 -6 -45 -15t-115 -24.5t-168 -15.5q-197 0 -285 122.5t-88 397.5zM225 567h115q209 0 292 43t83 166 q0 87 -53 124.5t-152 37.5q-147 0 -214.5 -93.5t-70.5 -277.5zM256 1280v168h115v-168h-115zM637 1280v168h111v-168h-111z" />
<glyph unicode="&#xec;" horiz-adv-x="405" d="M-133 1415l41 101l401 -193l-35 -90zM141 0v1024h123v-1024h-123z" />
<glyph unicode="&#xed;" horiz-adv-x="405" d="M109 1321l403 197l39 -107l-406 -180zM141 0v1024h123v-1024h-123z" />
<glyph unicode="&#xee;" horiz-adv-x="405" d="M-86 1208l246 297h86l248 -297h-134l-155 185l-158 -185h-133zM141 0v1024h123v-1024h-123z" />
<glyph unicode="&#xef;" horiz-adv-x="405" d="M-43 1280v168h115v-168h-115zM141 0v1024h123v-1024h-123zM338 1280v168h111v-168h-111z" />
<glyph unicode="&#xf0;" horiz-adv-x="1046" d="M84 422q0 216 104 336.5t295 120.5q63 0 147.5 -20t137.5 -40l53 -20q-12 148 -84 256.5t-221 191.5l-213 -157l-59 79l172 127q-90 39 -226 80l29 113q181 -47 309 -109l187 138l59 -80l-149 -111q317 -204 317 -592q0 -278 -44.5 -442t-138 -237.5t-249.5 -73.5 q-208 0 -317 115.5t-109 324.5zM211 420q0 -144 76 -230t223 -86q113 0 179.5 53.5t99 178t34.5 342.5q-10 6 -59 23.5t-130.5 37t-141.5 19.5q-134 0 -207.5 -89.5t-73.5 -248.5z" />
<glyph unicode="&#xf1;" horiz-adv-x="1015" d="M141 0h123v727q6 8 16 22.5t42 50.5t64.5 63.5t78.5 50t88 22.5q112 0 159.5 -80.5t47.5 -255.5v-600h123v639q0 405 -310 405q-49 0 -99 -19.5t-86 -47t-65 -55t-44 -46.5l-15 -20l-2 168h-121v-1024zM227 1372q11 12 29.5 30t63.5 47.5t77 29.5q43 0 151.5 -50.5 t131.5 -50.5q19 0 51.5 20t54.5 40l23 20l25 -88q-4 -4 -10.5 -11t-25.5 -24t-37 -30t-41.5 -24t-41.5 -11q-44 0 -150.5 50t-134.5 50q-21 0 -56 -22t-60 -44l-25 -22z" />
<glyph unicode="&#xf2;" horiz-adv-x="995" d="M102 526q0 130 18.5 221.5t62.5 160t122 101.5t193 33t192.5 -33t121 -101.5t61.5 -159.5t18 -222q0 -78 -3.5 -135.5t-13.5 -117.5t-27.5 -102t-47 -80t-70.5 -61t-99 -36.5t-132 -13.5t-132.5 13.5t-100 36.5t-71 61t-47.5 80t-28 102t-13.5 117.5t-3.5 135.5zM223 526 q0 -67 1.5 -110.5t8 -94.5t17.5 -82.5t31.5 -63t49.5 -49t70.5 -28t96.5 -10.5q54 0 95.5 10.5t70.5 28t48.5 49t31 63t17.5 82.5t7.5 94.5t1.5 110.5q0 220 -57.5 315t-214.5 95t-216 -95t-59 -315zM238 1415l41 101l401 -193l-35 -90z" />
<glyph unicode="&#xf3;" horiz-adv-x="995" d="M102 526q0 130 18.5 221.5t62.5 160t122 101.5t193 33t192.5 -33t121 -101.5t61.5 -159.5t18 -222q0 -78 -3.5 -135.5t-13.5 -117.5t-27.5 -102t-47 -80t-70.5 -61t-99 -36.5t-132 -13.5t-132.5 13.5t-100 36.5t-71 61t-47.5 80t-28 102t-13.5 117.5t-3.5 135.5zM223 526 q0 -67 1.5 -110.5t8 -94.5t17.5 -82.5t31.5 -63t49.5 -49t70.5 -28t96.5 -10.5q54 0 95.5 10.5t70.5 28t48.5 49t31 63t17.5 82.5t7.5 94.5t1.5 110.5q0 220 -57.5 315t-214.5 95t-216 -95t-59 -315zM317 1321l404 197l39 -107l-406 -180z" />
<glyph unicode="&#xf4;" horiz-adv-x="995" d="M102 526q0 130 18.5 221.5t62.5 160t122 101.5t193 33t192.5 -33t121 -101.5t61.5 -159.5t18 -222q0 -78 -3.5 -135.5t-13.5 -117.5t-27.5 -102t-47 -80t-70.5 -61t-99 -36.5t-132 -13.5t-132.5 13.5t-100 36.5t-71 61t-47.5 80t-28 102t-13.5 117.5t-3.5 135.5z M209 1208l244 297h88l245 -297h-133l-155 185l-156 -185h-133zM223 526q0 -67 1.5 -110.5t8 -94.5t17.5 -82.5t31.5 -63t49.5 -49t70.5 -28t96.5 -10.5q54 0 95.5 10.5t70.5 28t48.5 49t31 63t17.5 82.5t7.5 94.5t1.5 110.5q0 220 -57.5 315t-214.5 95t-216 -95t-59 -315z " />
<glyph unicode="&#xf5;" horiz-adv-x="995" d="M102 526q0 130 18.5 221.5t62.5 160t122 101.5t193 33t192.5 -33t121 -101.5t61.5 -159.5t18 -222q0 -78 -3.5 -135.5t-13.5 -117.5t-27.5 -102t-47 -80t-70.5 -61t-99 -36.5t-132 -13.5t-132.5 13.5t-100 36.5t-71 61t-47.5 80t-28 102t-13.5 117.5t-3.5 135.5z M195 1372q11 12 29.5 30t63.5 47.5t77 29.5q43 0 151 -50.5t131 -50.5q19 0 51.5 20t55.5 40l22 20l25 -88q-4 -4 -10.5 -11t-25.5 -24t-37 -30t-41.5 -24t-41.5 -11q-44 0 -150.5 50t-134.5 50q-21 0 -56 -22t-60 -44l-25 -22zM223 526q0 -67 1.5 -110.5t8 -94.5 t17.5 -82.5t31.5 -63t49.5 -49t70.5 -28t96.5 -10.5q54 0 95.5 10.5t70.5 28t48.5 49t31 63t17.5 82.5t7.5 94.5t1.5 110.5q0 220 -57.5 315t-214.5 95t-216 -95t-59 -315z" />
<glyph unicode="&#xf6;" horiz-adv-x="995" d="M102 526q0 130 18.5 221.5t62.5 160t122 101.5t193 33t192.5 -33t121 -101.5t61.5 -159.5t18 -222q0 -78 -3.5 -135.5t-13.5 -117.5t-27.5 -102t-47 -80t-70.5 -61t-99 -36.5t-132 -13.5t-132.5 13.5t-100 36.5t-71 61t-47.5 80t-28 102t-13.5 117.5t-3.5 135.5zM223 526 q0 -67 1.5 -110.5t8 -94.5t17.5 -82.5t31.5 -63t49.5 -49t70.5 -28t96.5 -10.5q54 0 95.5 10.5t70.5 28t48.5 49t31 63t17.5 82.5t7.5 94.5t1.5 110.5q0 220 -57.5 315t-214.5 95t-216 -95t-59 -315zM260 1280v168h100v-168h-100zM627 1280v168h98v-168h-98z" />
<glyph unicode="&#xf7;" d="M199 539v120h749v-120h-749zM426 686v184h295v-184h-295zM510 68v190h125v-190h-125z" />
<glyph unicode="&#xf8;" horiz-adv-x="995" d="M102 526q0 130 18.5 221.5t62.5 160t122 101.5t193 33q86 0 147 -18l82 213l86 -31l-86 -217q90 -56 127 -169.5t37 -293.5q0 -78 -3.5 -135.5t-13.5 -117.5t-27.5 -102t-47 -80t-70.5 -61t-99 -36.5t-132 -13.5q-92 0 -156 18l-86 -227l-84 30l90 230q-96 58 -128 176 t-32 319zM223 526q0 -158 15.5 -245.5t68.5 -135.5l150 379l149 398q-43 14 -108 14q-157 0 -216 -95t-59 -315zM381 102q46 -14 117 -14q54 0 95.5 10.5t70.5 28t48.5 49t31 63t17.5 82.5t7.5 94.5t1.5 110.5q0 135 -20 220t-68 131l-152 -383z" />
<glyph unicode="&#xf9;" horiz-adv-x="1015" d="M133 399v625h123v-600q0 -175 48 -255.5t159 -80.5q42 0 87 21.5t79.5 52t63.5 60.5t44 52l15 21v729h122v-1024h-120v168q-6 -8 -16 -20.5t-43 -45t-67.5 -57t-85.5 -45t-100 -20.5q-162 0 -235.5 102t-73.5 317zM213 1415l41 101l401 -193l-34 -90z" />
<glyph unicode="&#xfa;" horiz-adv-x="1015" d="M133 399v625h123v-600q0 -175 48 -255.5t159 -80.5q42 0 87 21.5t79.5 52t63.5 60.5t44 52l15 21v729h122v-1024h-120v168q-6 -8 -16 -20.5t-43 -45t-67.5 -57t-85.5 -45t-100 -20.5q-162 0 -235.5 102t-73.5 317zM338 1321l403 197l39 -107l-405 -180z" />
<glyph unicode="&#xfb;" horiz-adv-x="1015" d="M133 399v625h123v-600q0 -175 48 -255.5t159 -80.5q42 0 87 21.5t79.5 52t63.5 60.5t44 52l15 21v729h122v-1024h-120v168q-6 -8 -16 -20.5t-43 -45t-67.5 -57t-85.5 -45t-100 -20.5q-162 0 -235.5 102t-73.5 317zM219 1208l244 297h88l248 -297h-135l-156 185l-156 -185 h-133z" />
<glyph unicode="&#xfc;" horiz-adv-x="1015" d="M133 399v625h123v-600q0 -175 48 -255.5t159 -80.5q42 0 87 21.5t79.5 52t63.5 60.5t44 52l15 21v729h122v-1024h-120v168q-6 -8 -16 -20.5t-43 -45t-67.5 -57t-85.5 -45t-100 -20.5q-162 0 -235.5 102t-73.5 317zM262 1280v168h115v-168h-115zM643 1280v168h111v-168 h-111z" />
<glyph unicode="&#xfd;" horiz-adv-x="911" d="M53 1024h125l242 -918h69l248 918h123l-409 -1485h-119l133 461h-133zM307 1321l404 197l39 -107l-406 -180z" />
<glyph unicode="&#xfe;" horiz-adv-x="999" d="M141 -457v1932h121v-603q1 1 13 13.5t20.5 20.5t25 23.5t31 26.5t34 25t38.5 24t40.5 19t44 13.5t44.5 4.5q80 0 141.5 -29.5t99.5 -78.5t62.5 -119.5t33.5 -143.5t9 -159q0 -271 -98 -401.5t-324 -130.5q-40 0 -93.5 4t-87.5 8l-34 4v-453h-121zM262 115 q139 -21 213 -21q164 0 230.5 102.5t66.5 315.5q0 82 -11.5 152.5t-37 131.5t-73.5 96.5t-113 35.5q-39 0 -81.5 -19.5t-75.5 -47t-60.5 -54.5t-42.5 -47l-15 -19v-626z" />
<glyph unicode="&#xff;" horiz-adv-x="911" d="M53 1024h125l242 -918h69l248 918h123l-409 -1485h-119l133 461h-133zM211 1280v168h115v-168h-115zM592 1280v168h110v-168h-110z" />
<glyph unicode="&#x152;" horiz-adv-x="1773" d="M113 707q0 148 16 262t52.5 206t95 151t143.5 90.5t198 31.5q138 0 285 -21h778v-124h-659v-515h545v-122h-545v-541h659v-127h-774q-207 -18 -289 -18q-191 0 -301.5 81.5t-158.5 247.5q-45 154 -45 398zM236 709q0 -219 30 -334q36 -137 122 -203t241 -66q74 0 274 15 v1184q-204 18 -274 18q-114 0 -191 -38t-121 -118t-62.5 -189.5t-18.5 -268.5z" />
<glyph unicode="&#x153;" horiz-adv-x="1656" d="M102 528q0 271 92.5 392.5t313.5 121.5q254 0 344 -211q89 211 332 211q275 0 348 -239q31 -105 31 -244v-102h-656q0 -114 25 -197q27 -82 84.5 -123t154.5 -41q62 0 150 5t145 9l58 5l4 -107q-207 -28 -363 -28q-115 0 -195.5 51t-121.5 139q-42 -97 -123.5 -143.5 t-216.5 -46.5q-151 0 -237.5 50.5t-125.5 157.5q-43 123 -43 340zM221 528q0 -241 49 -329q60 -103 238 -103q55 0 98 12t72 31t50 51.5t32.5 65t18 81t8 89.5t1.5 100q0 161 -32 246q-32 81 -92.5 118.5t-155.5 37.5q-164 0 -225.5 -88t-61.5 -312zM905 565h541 q0 153 -39 242q-58 119 -221 119q-278 0 -281 -361z" />
<glyph unicode="&#x178;" horiz-adv-x="1017" d="M25 1423h139l346 -684l340 684h137l-418 -823v-600h-120v600zM270 1673v170h99v-170h-99zM647 1673v170h98v-170h-98z" />
<glyph unicode="&#x2c6;" horiz-adv-x="1619" d="M514 1208l244 297h65l246 -297h-121l-155 185l-158 -185h-121z" />
<glyph unicode="&#x2dc;" horiz-adv-x="864" d="M137 1372q11 12 29.5 30t63.5 47.5t77 29.5q43 0 151.5 -50.5t131.5 -50.5q19 0 51.5 20t54.5 40l23 20l24 -88q-4 -4 -10 -11t-25 -24t-37 -30t-41.5 -24t-41.5 -11q-44 0 -150.5 50t-134.5 50q-21 0 -56 -22t-60 -44l-25 -22z" />
<glyph unicode="&#x2000;" horiz-adv-x="1003" />
<glyph unicode="&#x2001;" horiz-adv-x="2007" />
<glyph unicode="&#x2002;" horiz-adv-x="1003" />
<glyph unicode="&#x2003;" horiz-adv-x="2007" />
<glyph unicode="&#x2004;" horiz-adv-x="669" />
<glyph unicode="&#x2005;" horiz-adv-x="501" />
<glyph unicode="&#x2006;" horiz-adv-x="334" />
<glyph unicode="&#x2007;" horiz-adv-x="334" />
<glyph unicode="&#x2008;" horiz-adv-x="250" />
<glyph unicode="&#x2009;" horiz-adv-x="401" />
<glyph unicode="&#x200a;" horiz-adv-x="111" />
<glyph unicode="&#x2010;" horiz-adv-x="776" d="M135 492v114h508v-114h-508z" />
<glyph unicode="&#x2011;" horiz-adv-x="776" d="M135 492v114h508v-114h-508z" />
<glyph unicode="&#x2012;" horiz-adv-x="776" d="M135 492v114h508v-114h-508z" />
<glyph unicode="&#x2013;" horiz-adv-x="1294" d="M135 494v110h1024v-110h-1024z" />
<glyph unicode="&#x2014;" horiz-adv-x="2318" d="M135 494v110h2048v-110h-2048z" />
<glyph unicode="&#x2018;" horiz-adv-x="395" d="M102 981l105 442h88l-74 -442h-119z" />
<glyph unicode="&#x2019;" horiz-adv-x="393" d="M109 981l73 442h119l-104 -442h-88z" />
<glyph unicode="&#x201a;" horiz-adv-x="378" d="M86 -174l53 221h43l-37 -221h-59z" />
<glyph unicode="&#x201c;" horiz-adv-x="704" d="M102 981l105 442h88l-74 -442h-119zM410 981l104 442h88l-74 -442h-118z" />
<glyph unicode="&#x201d;" horiz-adv-x="700" d="M109 981l73 442h119l-104 -442h-88zM416 981l73 442h119l-104 -442h-88z" />
<glyph unicode="&#x201e;" horiz-adv-x="638" d="M147 -322l105 443h154l-74 -443h-185z" />
<glyph unicode="&#x2022;" horiz-adv-x="954" d="M221 219v590h512v-590h-512z" />
<glyph unicode="&#x2026;" horiz-adv-x="1366" d="M135 0v205h125v-205h-125zM621 0v205h124v-205h-124zM1106 0v205h125v-205h-125z" />
<glyph unicode="&#x202f;" horiz-adv-x="401" />
<glyph unicode="&#x2039;" horiz-adv-x="565" d="M84 479v66l346 278v-112l-250 -199l250 -217v-113z" />
<glyph unicode="&#x203a;" horiz-adv-x="565" d="M135 348v55l250 101l-250 108v56l346 -148v-33z" />
<glyph unicode="&#x205f;" horiz-adv-x="501" />
<glyph unicode="&#x20ac;" d="M113 442v103h94q-2 41 -2 129q0 71 2 106h-94v103h100q12 118 41.5 205.5t81.5 153t133.5 99t192.5 33.5q74 0 158 -10t132 -20l47 -11l-8 -104q-182 37 -319 37q-162 0 -238 -97t-96 -286h571v-103h-577q-2 -35 -2 -106q0 -88 2 -129h577v-103h-567q11 -85 33 -147 t60 -109.5t98 -71.5t141 -24q55 0 134 8t131 16l52 9l8 -103q-187 -40 -337 -40q-112 0 -193 30.5t-133 92t-80.5 144t-40.5 195.5h-102z" />
<glyph unicode="&#x2122;" horiz-adv-x="1366" d="M178 1196v88h410v-88h-150v-516h-96v516h-164zM653 678v606h129l152 -453l156 453h129v-606h-91v485l-153 -458h-82l-148 458v-485h-92z" />
<glyph unicode="&#x25fc;" horiz-adv-x="1024" d="M0 0v1024h1024v-1024h-1024z" />
</font>
</defs>
</svg>
